** กรุณาศึกษาการใช้โปรแกรม bittorrent จากแหล่งต่างๆ และตรวจสอบจำนวนผู้ปล่อยไฟล์ที่ต้องการก่อนซื้อ Package มิฉะนั้นอาจไม่ได้ไฟล์ที่ต้องการ **

ไฟล์ทั้งหมด 26,271ไฟล์
ไฟล์วันนี้ 136ไฟล์
สมาชิกทั้งหมด 5,511คน

** กรุณาตรวจสอบผู้ปล่อย โดยคลิกที่ "ขอข้อมูลเพียร์" ก่อนดาวน์โหลด **

[FSET429]6 I YOU HAPPEN TO NIGHT CRAWLING TO THE PERSON YOU DO NOT DABBLED IN ABSOLUTE ~ AIKA [AVI] - HD 720p

ชื่อไฟล์
[FSET429]6 I YOU HAPPEN TO NIGHT CRAWLING TO THE PERSON YOU DO NOT DABBLED IN ABSOLUTE ~ AIKA [AVI] - HD 720p
ดาวน์โหลด
ขนาด
1.27 GB
วันที่เข้าระบบ
2017-01-12 01:00:01
ประเภท
Peers
seeds: 1, leechers: 2 = 3 peers
รูปภาพ
ข้อมูล


Format                                   : MPEG-4
Format profile                           : Base Media
Codec ID                                 : isom (isom/mp41)
File size                                : 1.27 GiB
Duration                                 : 2 h 27 min
Overall bit rate mode                    : Constant
Overall bit rate                         : 1 230 kb/s
Encoded date                             : UTC 2013-05-11 00:43:24
Tagged date                              : UTC 2013-05-11 00:43:24

Video
ID                                       : 1
Format                                   : AVC
Format/Info                              : Advanced Video Codec
Format profile                           : High@L3
Format settings, CABAC                   : No
Format settings, ReFrames                : 1 frame
Format settings, GOP                     : M=1, N=33
Codec ID                                 : avc1
Codec ID/Info                            : Advanced Video Coding
Duration                                 : 2 h 27 min
Source duration                          : 2 h 27 min
Bit rate mode                            : Constant
Bit rate                                 : 1 045 kb/s
Nominal bit rate                         : 1 100 kb/s
Width                                    : 720 pixels
Height                                   : 396 pixels
Display aspect ratio                     : 16:9
Frame rate mode                          : Constant
Frame rate                               : 29.970 (30000/1001) FPS
Standard                                 : NTSC
Color space                              : YUV
Chroma subsampling                       : 4:2:0
Bit depth                                : 8 bits
Scan type                                : Progressive
Bits/(Pixel*Frame)                       : 0.122
Stream size                              : 1.08 GiB (85%)
Source stream size                       : 1.13 GiB (89%)
Language                                 : English
Encoded date                             : UTC 2013-05-11 00:43:24
Tagged date                              : UTC 2013-05-11 00:43:24
Color range                              : Limited
Color primaries                          : BT.601 NTSC
Transfer characteristics                 : BT.601
Matrix coefficients                      : BT.601
mdhd_Duration                            : 8826458

Audio
ID                                       : 2
Format                                   : AAC
Format/Info                              : Advanced Audio Codec
Format profile                           : LC
Codec ID                                 : 40
Duration                                 : 2 h 27 min
Bit rate mode                            : Constant
Bit rate                                 : 127 kb/s
Channel(s)                               : 2 channels
Channel positions                        : Front: L R
Sampling rate                            : 48.0 kHz
Frame rate                               : 46.875 FPS (1024 spf)
Compression mode                         : Lossy
Stream size                              : 135 MiB (10%)
Language                                 : English
Encoded date                             : UTC 2013-05-11 00:43:24
Tagged date                              : UTC 2013-05-11 00:43:24
mdhd_Duration                            : 8872561