** กรุณาศึกษาการใช้โปรแกรม bittorrent จากแหล่งต่างๆ และตรวจสอบจำนวนผู้ปล่อยไฟล์ที่ต้องการก่อนซื้อ Package มิฉะนั้นอาจไม่ได้ไฟล์ที่ต้องการ **

ไฟล์ทั้งหมด 41,882ไฟล์
ไฟล์วันนี้ 261ไฟล์
สมาชิกทั้งหมด 7,781คน

** กรุณาตรวจสอบผู้ปล่อย โดยคลิกที่ "ขอข้อมูลเพียร์" ก่อนดาวน์โหลด **

[TBL043]Intense Erotic Body SEX BODY Slimy Too Erotic ~ Yuko Ogura [MP4] - HD 720p

ชื่อไฟล์
[TBL043]Intense Erotic Body SEX BODY Slimy Too Erotic ~ Yuko Ogura [MP4] - HD 720p
ดาวน์โหลด
ขนาด
917.55 MB
วันที่เข้าระบบ
2017-01-12 00:00:02
ประเภท
Peers
seeds: 1, leechers: 3 = 4 peers
รูปภาพ
ข้อมูล

Format                                   : MPEG-4
Format profile                           : Base Media
Codec ID                                 : isom (isom/iso2/mp41)
File size                                : 918 MiB
Duration                                 : 1 h 53 min
Overall bit rate mode                    : Constant
Overall bit rate                         : 1 133 kb/s
Writing application                      : Lavf54.6.100

Video
ID                                       : 1
Format                                   : MPEG-4 Visual
Format profile                           : Simple@L3
Format settings, BVOP                    : No
Format settings, QPel                    : No
Format settings, GMC                     : No warppoints
Format settings, Matrix                  : Default (H.263)
Codec ID                                 : 20
Duration                                 : 1 h 53 min
Bit rate mode                            : Constant
Bit rate                                 : 1 000 kb/s
Width                                    : 720 pixels
Height                                   : 404 pixels
Display aspect ratio                     : 16:9
Frame rate mode                          : Constant
Frame rate                               : 25.000 FPS
Color space                              : YUV
Chroma subsampling                       : 4:2:0
Bit depth                                : 8 bits
Scan type                                : Progressive
Compression mode                         : Lossy
Bits/(Pixel*Frame)                       : 0.138
Stream size                              : 810 MiB (88%)
Writing library                          : Lavc54.23.100

Audio
ID                                       : 2
Format                                   : AAC
Format/Info                              : Advanced Audio Codec
Format profile                           : LC
Codec ID                                 : 40
Duration                                 : 1 h 53 min
Duration_FirstFrame                      : 23 ms
Bit rate mode                            : Constant
Bit rate                                 : 128 kb/s
Channel(s)                               : 2 channels
Channel positions                        : Front: L R
Sampling rate                            : 44.1 kHz
Frame rate                               : 43.066 FPS (1024 spf)
Compression mode                         : Lossy
Stream size                              : 104 MiB (11%)
Default                                  : Yes
Alternate group                          : 1